Witaj Gościu! jeżeli widzisz ten dymek to znaczy że nie jesteś zarejestrowany/zalogowany. Kliknij by się zarejestrować. Rejestracja zajmie mniej niż 30 sekund, a dzięki niej zyskasz możliwość pobierania, komentowania oraz dodawania torrentów !

MENU


Kategorie


FACEBOOK


PROGRAMY


WspółPraca
Poradnik
KAN


ZAGŁOSUJ NA NAS


Torrent



Torrent: Robin Hood (2010)[BRRip 1080p x264 by alE13 AC3/DTS][Lektor i Napisy PL/Eng][Eng]
Dodał:  alE13
Data: 17-11-2016
Rozmiar: 8.25 GB
Seed: 2
Peer: 0
Kondycja:
Zaloguj się aby pobrać


Kategoria:  Filmy HD 1080p AVC
Gatunek: Przygodowy
Zaakceptował: Nie wymagał akceptacji
Liczba pobrań: 96
Liczba komentarzy: 0
Ostatnia aktualizacja: 2018-01-01 22:50:26

OPIS:





http://www.filmweb.pl/film/Robin+Hood-2010-430661
http://www.imdb.com/title/tt0955308/

Film w wersji reżyserskiej.
Movie in Directors cut.


reżyseria: Ridley Scott
scenariusz: Brian Helgeland
gatunek: Dramat,Kostiumowy,Przygodowy
produkcja: USA,Wielka Brytania
premiera: 12-05-2010
muzyka:         Marc Streitenfeld
zdjęcia:        John Mathieson
czas:           2h 35 mn



In 12th century England, Robin and his band of marauders confront corruption in a local village
and lead an uprising against the crown that will forever alter the balance of world power.

Russell Crowe wciela się w rolę legendarnej postaci znanej pokoleniom jako "Robin Hood",
którego przygody utrwaliły się w powszechnej świadomości i pobudziły wyobraźnię tych, którzy
podzielają jego ducha przygody i praworządności. W XIII-wiecznej Anglii, Robin i dowodzona
przez niego banda rabusiów stawiają czoła korupcji w wiosce i prowadzą rebelię przeciwko koronie,
która na zawsze zakłóci równowagą władzy.



Russell Crowe, Cate Blanchett, Matthew Macfadyen



Robin Hood (2010)-alE13.mkv
Format                      : Matroska
Format version              : Version 4 / Version 2
File size                   : 8.19 GiB
Duration                    : 2 h 35 min
Overall bit rate            : 7 519 kb/s
Movie name                  : Robin Hood (2010)-alE13
Encoded date                : UTC 2016-11-16 22:06:26
Writing application         : mkvmerge v8.1.0 ('Psychedelic Postcard' 64bit
Writing library             : libebml v1.3.1 + libmatroska v1.4.2
Cover                       : Yes
Attachments                 : cover.jpg

Video
ID                          : 1
Format                      : AVC
Format/Info                 : Advanced Video Codec
Format profile              : High@L4.1
Format settings, CABAC      : Yes
Format settings, ReFrames   : 2 frames
Codec ID                    : V_MPEG4/ISO/AVC
Duration                    : 2 h 35 min
Bit rate                    : 5 561 kb/s
Width                       : 1 920 pixels
Height                      : 800 pixels
Display aspect ratio        : 2.40:1
Frame rate mode             : Constant
Frame rate                  : 23.976 (24000/1001) FPS
Color space                 : YUV
Chroma subsampling          : 4:2:0
Bit depth                   : 8 bits
Scan type                   : Progressive
Bits/(Pixel*Frame)          : 0.151
Stream size                 : 6.05 GiB (74%)
Title                       : Robin Hood (2010)-alE13
Writing library             : x264 core 142
Default                     : Yes
Forced                      : No
Color range                 : Limited
Color primaries             : BT.709
Transfer characteristics    : BT.709
Matrix coefficients         : BT.709

Audio #1
ID                          : 2
Format                      : DTS
Format/Info                 : Digital Theater Systems
Mode                        : 16
Format settings, Endianness : Big
Codec ID                    : A_DTS
Duration                    : 2 h 35 min
Bit rate mode               : Constant
Bit rate                    : 1 509 kb/s
Channel(s)                  : 6 channels
Channel positions           : Front: L C R, Side: L R, LFE
Sampling rate               : 48.0 kHz
Frame rate                  : 93.750 FPS (512 spf)
Bit depth                   : 24 bits
Compression mode            : Lossy
Stream size                 : 1.64 GiB (20%)
Title                       : Robin Hood (2010)-alE13_DTS
Language                    : English
Default                     : No
Forced                      : No

Audio #2
ID                          : 6
Format                      : AC-3
Format/Info                 : Audio Coding 3
Mode extension              : CM (complete main)
Format settings, Endianness : Big
Codec ID                    : A_AC3
Duration                    : 2 h 35 min
Bit rate mode               : Constant
Bit rate                    : 448 kb/s
Channel(s)                  : 6 channels
Channel positions           : Front: L C R, Side: L R, LFE
Sampling rate               : 48.0 kHz
Frame rate                  : 31.250 FPS (1536 spf)
Bit depth                   : 16 bits
Compression mode            : Lossy
Delay relative to video     : 2 s 50 ms
Stream size                 : 499 MiB (6%)
Title                       : Robin Hood (2010)-alE13_AC3
Language                    : Polish
Default                     : Yes
Forced                      : No

Text #1
ID                          : 3
Format                      : UTF-8
Codec ID                    : S_TEXT/UTF8
Codec ID/Info               : UTF-8 Plain Text
Duration                    : 2 h 28 min
Bit rate                    : 42 b/s
Count of elements           : 1590
Stream size                 : 46.2 KiB (0%)
Title                       : Robin Hood (2010)-alE13
Language                    : English
Default                     : No
Forced                      : No

Text #2
ID                          : 4
Format                      : UTF-8
Codec ID                    : S_TEXT/UTF8
Codec ID/Info               : UTF-8 Plain Text
Duration                    : 2 h 29 min
Bit rate                    : 43 b/s
Count of elements           : 1374
Stream size                 : 47.4 KiB (0%)
Title                       : Robin Hood (2010)-alE13
Language                    : French
Default                     : No
Forced                      : No

Text #3
ID                          : 5
Format                      : UTF-8
Codec ID                    : S_TEXT/UTF8
Codec ID/Info               : UTF-8 Plain Text
Duration                    : 2 h 28 min
Bit rate                    : 40 b/s
Count of elements           : 1441
Stream size                 : 44.4 KiB (0%)
Title                       : Robin Hood (2010)-alE13
Language                    : Spanish
Default                     : No
Forced                      : No

Text #4
ID                          : 7
Format                      : UTF-8
Codec ID                    : S_TEXT/UTF8
Codec ID/Info               : UTF-8 Plain Text
Duration                    : 2 h 29 min
Bit rate                    : 39 b/s
Count of elements           : 1455
Stream size                 : 43.3 KiB (0%)
Title                       : Robin Hood (2010)-alE13
Language                    : Polish
Default                     : Yes
Forced                      : No

Menu
00:00:00.000                : en:00:00:00.000
00:12:05.975                : en:00:12:05.975
00:18:27.440                : en:00:18:27.440
00:25:11.552                : en:00:25:11.552
00:33:31.426                : en:00:33:31.426
00:38:36.981                : en:00:38:36.981
00:48:42.585                : en:00:48:42.586
00:57:11.887                : en:00:57:11.887
01:04:14.309                : en:01:04:14.309
01:10:41.612                : en:01:10:41.612
01:23:24.624                : en:01:23:24.624
01:32:17.115                : en:01:32:17.115
01:40:30.149                : en:01:40:30.149
01:49:15.882                : en:01:49:15.882
01:56:06.418                : en:01:56:06.418
02:02:29.091                : en:02:02:29.091
02:09:20.669                : en:02:09:20.669
02:18:21.418                : en:02:18:21.418
02:22:48.685                : en:02:22:48.685
0208.611                : en:0208.611

DETALE TORRENTA:[ ]
Podziękowania,
 




Komentarze