Witaj Gościu! jeżeli widzisz ten dymek to znaczy że nie jesteś zarejestrowany/zalogowany. Kliknij by się zarejestrować. Rejestracja zajmie mniej niż 30 sekund, a dzięki niej zyskasz możliwość pobierania, komentowania oraz dodawania torrentów !

User:      Hasło:     

MENU


Kategorie


FACEBOOK


PROGRAMY


WspółPraca
Poradnik
KAN


ZAGŁOSUJ NA NAS


Torrent



Torrent: Obcy - Decydujące Starcie *1986* [DVDRip XviD] [Lektor PL]
Dodał:  viola62
Data: 06-12-2016
Rozmiar: 701.92 MB
Seed: 8
Peer: 32
Kondycja:
Zaloguj się aby pobrać


Kategoria:  Filmy DivX/XviD
Gatunek: Sci-Fi / Fantasy
Zaakceptował: Nie wymagał akceptacji
Liczba pobrań: 32
Liczba komentarzy: 0
Ostatnia aktualizacja: 2016-12-07 20:46:47

OPIS:

...( Info )...


* Produkcja: USA, Wielka Brytania
* Data premiery: 12 sierpnia 1990 (Polska) 18 lipca 1986 (świat)
* Gatunek: Horror, Sci-Fi
* Reżyseria: James Cameron
* Scenariusz: James Cameron

http://www.filmweb.pl/Obcy.Decydujace.Starcie
http://www.imdb.com/title/tt0090605/?ref_=fn_al_tt_1
http://www.youtube.com/watch?v=XKSQmYUaIyE


...( Opis )...


Po 57 latach dryfowania w przestrzeni kosmicznej oficer Ellen Ripley (Sigourney Weaver) zostaje odnaleziona. Na stacji dowiaduje się, że "firma" wysłała dużą grupę kolonistów na planetę, z której załoga Nostromo wniosła na pokład obcego. Przerażona próbuje interweniować, jednak bez skutku, gdyż nikt jej nie wierzy. Kiedy wydaje się, że wszystko wraca do normy, z bazy osadników przestają nadchodzić wiadomości. Oficer Ripley wyrusza wraz z oddziałem komandosów i pracownikiem "firmy" na planetę. To, co tam zastają, nie śniło im się w najgorszych koszmarach...


...( Obsada )...


* Sigourney Weaver ............ Ellen Ripley
* Michael Biehn ............... Kapral Dwayne Hicks
* Paul Reiser ................. Carter J. Burke
* Lance Henriksen ............. Bishop
* Carrie Henn ................. Rebecca "Newt" Jorden
* Bill Paxton ................. Szeregowiec W. Hudson
* William Hope ................ Porucznik S. Gorman
* Ricco Ross .................. Szeregowiec R. Frost


...( Dane Techniczne )...


Format                      : AVI
Format/Info                 : Audio Video Interleave
File size                   : 701 MiB
Duration                    : 2h 9mn
Overall bit rate            : 757 Kbps
Writing application         : VirtualDubMod 1.5.4.1 (build 2178/release)
Writing library             : VirtualDubMod build 2178/release

Video
ID                          : 0
Format                      : MPEG-4 Visual
Format profile              : Advanced Simple@L5
Format settings, BVOP       : 1
Format settings, QPel       : No
Format settings, GMC        : No warppoints
Format settings, Matrix     : Custom
Codec ID                    : XVID
Codec ID/Hint               : XviD
Duration                    : 2h 9mn
Bit rate                    : 638 Kbps
Width                       : 560 pixels
Height                      : 304 pixels
Display aspect ratio        : 1.85:1
Frame rate                  : 25.000 fps
Color space                 : YUV
Chroma subsampling          : 4:2:0
Bit depth                   : 8 bits
Scan type                   : Progressive
Compression mode            : Lossy
Bits/(Pixel*Frame)          : 0.150
Stream size                 : 591 MiB (84%)
Writing library             : XviD 1.2.1 (UTC 2008-12-04)

Audio
ID                          : 1
Format                      : MPEG Audio
Format version              : Version 1
Format profile              : Layer 3
Mode                        : Joint stereo
Mode extension              : MS Stereo
Codec ID                    : 55
Codec ID/Hint               : MP3
Duration                    : 2h 9mn
Bit rate mode               : Constant
Bit rate                    : 112 Kbps
Channel(s)                  : 2 channels
Sampling rate               : 44.1 KHz
Compression mode            : Lossy
Delay relative to video     : 3ms
Stream size                 : 104 MiB (15%)
Alignment                   : Split accross interleaves
Interleave, duration        : 80 ms (2.00 video frames)
Interleave, preload duratio : 500 ms
Writing library             : LAME3.98.2ŞŞŞŞŞŞŞŞŞŞ
Language                    : Polish


PS/ POBRALES ----------> SEEDUJ /THX/

DETALE TORRENTA:[ ]
Podziękowania,
 




Komentarze