Witaj Gościu! jeżeli widzisz ten dymek to znaczy że nie jesteś zarejestrowany/zalogowany. Kliknij by się zarejestrować. Rejestracja zajmie mniej niż 30 sekund, a dzięki niej zyskasz możliwość pobierania, komentowania oraz dodawania torrentów !

User:      Hasło:     

MENU


Kategorie


FACEBOOK


PROGRAMY


WspółPraca
Poradnik
KAN


ZAGŁOSUJ NA NAS


Torrent



Torrent: Red Rock West (1993) [BRRip 1080p x264] [AC3][Lektor PL]
Dodał:  viola62
Data: 03-05-2018
Rozmiar: 7.57 GB
Seed: 0
Peer: 0
Kondycja:
Zaloguj się aby pobrać


Kategoria:  Filmy x264/h264
Gatunek: Dramat / Obyczajowy
Zaakceptował: Nie wymagał akceptacji
Liczba pobrań: 12
Liczba komentarzy: 0
Ostatnia aktualizacja: 2018-05-03 08:20:14

OPIS:

..:Info)::..

reżyseria: John Dahl
scenariusz: John Dahl,Rick Dahl
gatunek: Thriller
produkcja: USA
premiera: 16-06-1993
muzyka: William Olvis
zdjęcia: Marc Reshovsky
czas: 1h 38mn

..:O Filmie)::..

http://www.filmweb.pl/film/Red+Rock+West-1993-9097

http://www.imdb.com/title/tt0105226/?ref_=nv_sr_2

http://fdb.pl/film/4934-red-rock-west

..:Opis)::..

Michael jedzie do Red Rock w poszukiwaniu pracy. Wchodzi do baru. Właściciel bierze go za płatnego zabójcę Lyle'a którego wynajął. Michael musi zabić jego żonę Suzanne. Wszystko się komplikuje kiedy prawdziwy morderca przyjeżdża do miasteczka.

..:Obsada)::..

Nicolas Cage...Michael Williams
Dennis Hopper...Lyle z Dallas
Lara Flynn Boyle...Suzanne Brown
J.T. Walsh...Wayne Brown
Robert Guajardo...Doktor

..:Dane Techniczne)::..


Format                      : Matroska
Format version              : Version 4 / Version 2
File size                   : 7.49 GiB
Duration                    : 1h 38mn
Overall bit rate mode       : Variable
Overall bit rate            : 10.9 Mbps
Encoded date                : UTC 2016-03-07 17:41:52
Writing application         : mkvmerge v8.1.0 ('Psychedelic Postcard' 64bit
Writing library             : libebml v1.3.1 + libmatroska v1.4.2
DURATION                    : 01:30:17.520000000
NUMBER_OF_FRAMES            : 750
NUMBER_OF_BYTES             : 23944
_STATISTICS_WRITING_APP     : mkvmerge v8.1.0 ('Psychedelic Postcard' 64bit
_STATISTICS_WRITING_DATE_UT : 2016-03-07 17:41:52
_STATISTICS_TAGS            : BPS DURATION NUMBER_OF_FRAMES NUMBER_OF_BYTES

Video
ID                          : 1
Format                      : AVC
Format/Info                 : Advanced Video Codec
Format profile              : High@L4
Format settings, CABAC      : Yes
Format settings, ReFrames   : 3 frames
Codec ID                    : V_MPEG4/ISO/AVC
Duration                    : 1h 38mn
Bit rate mode               : Variable
Bit rate                    : 9 758 Kbps
Maximum bit rate            : 20.0 Mbps
Width                       : 1 920 pixels
Height                      : 1 080 pixels
Display aspect ratio        : 16:9
Frame rate mode             : Constant
Frame rate                  : 23.976 fps
Standard                    : PAL
Color space                 : YUV
Chroma subsampling          : 4:2:0
Bit depth                   : 8 bits
Scan type                   : Progressive
Bits/(Pixel*Frame)          : 0.196
Stream size                 : 6.72 GiB (90%)
Default                     : Yes
Forced                      : No
Color range                 : Limited
Color primaries             : BT.709
Transfer characteristics    : BT.709
Matrix coefficients         : BT.709

Audio
ID                          : 2
Format                      : AC-3
Format/Info                 : Audio Coding 3
Mode extension              : CM (complete main)
Format settings, Endianness : Big
Codec ID                    : A_AC3
Duration                    : 1h 38mn
Bit rate mode               : Constant
Bit rate                    : 256 Kbps
Channel(s)                  : 2 channels
Channel positions           : Front: L R
Sampling rate               : 48.0 KHz
Compression mode            : Lossy
Delay relative to video     : 34s 100ms
Stream size                 : 181 MiB (2%)
Language                    : Polish
Default                     : Yes
Forced                      : No





DETALE TORRENTA:[ ]
Podziękowania, Go??




Komentarze