Witaj Gościu! jeżeli widzisz ten dymek to znaczy że nie jesteś zarejestrowany/zalogowany. Kliknij by się zarejestrować. Rejestracja zajmie mniej niż 30 sekund, a dzięki niej zyskasz możliwość pobierania, komentowania oraz dodawania torrentów !

User:      Hasło:     

MENU


Kategorie


FACEBOOK


PROGRAMY


WspółPraca
Poradnik
KAN


ZAGŁOSUJ NA NAS


Torrent



Torrent: Obcy - 8 Pasażer "Nostromo" *1979* [DVDRip XviD AC3] [Lektor PL]
Dodał:  viola62
Data: 06-12-2016
Rozmiar: 1.79 GB
Seed: 0
Peer: 0
Kondycja:
Zaloguj się aby pobrać


Kategoria:  Filmy DivX/XviD
Gatunek: Sci-Fi / Fantasy
Zaakceptował: Nie wymagał akceptacji
Liczba pobrań: 33
Liczba komentarzy: 0
Ostatnia aktualizacja: 2017-11-10 17:51:38

OPIS:

...( Info )...


Tytul: Obcy - 8 pasażer Nostromo
Produkcja: USA, Wielka Brytania
Data premiery: 14 listopada 2003 (Polska) 25 maja 1979 (świat)
Gatunek: Horror, Sci-Fi
Reżyseria: Ridley Scott
Scenariusz: Dan O'Bannon
Muzyka: Jerry Goldsmith
Zdjęcia: Derek Vanlint

http://www.filmweb.pl/Obcy
http://www.youtube.com/watch?v=jQ5lPt9edzQ
http://www.imdb.com/title/tt3276688/?ref_=fn_al_tt_1


...( Opis )...


Kosmos. Odległy wszechświat. Grupa siedmiorga członków załogi przebywa w stanie hibernacji. Ich sen przerywa sygnał S.O.S. nadawany z planety LV-240. Kapitan Dallas (Tom Skeritt), dowódca statku, zarządza zejście na niezbadaną planetę w ramach akcji ratunkowej. Jeden z członków załogi, niejaki Kane (John Hurt), zostaje zaatakowany przez nieznane stworzenie, który rzuca mu się na twarz i zaciska wokół szyi. Załoga zabiera Kane'a na pokład. Od tej chwili ich podróż przeradza się koszmar. Sygnał S.O.S. nadawany z nieznanej planety okazuje się ostrzeżeniem, lecz już za późno... Załoga otrzymuje nowego, niechcianego pasażera, ósmego pasażera "Nostromo"


...( Obsada )...


Sigourney Weaver ............... Ripley
Tom Skerritt ................... Dallas
Ian Holm ....................... Ash
John Hurt ...................... Kane
Harry Dean Stanton ............. Brett
Veronica Cartwright ............ Lambert
Yaphet Kotto ................... Parker
Bolaji Badejo .................. Obcy


...( Dane Techniczne )...



Format                      : AVI
Format/Info                 : Audio Video Interleave
File size                   : 1.79 GiB
Duration                    : 1h 56mn
Overall bit rate            : 2 198 Kbps
Writing application         : VirtualDubMod 1.5.10.3 | www.virtualdub-fr.org || (build 2550/release)
Writing library             : VirtualDubMod build 2550/release

Video
ID                          : 0
Format                      : MPEG-4 Visual
Format profile              : Advanced Simple@L5
Format settings, BVOP       : 1
Format settings, QPel       : No
Format settings, GMC        : No warppoints
Format settings, Matrix     : Custom
Codec ID                    : XVID
Codec ID/Hint               : XviD
Duration                    : 1h 56mn
Bit rate                    : 1 997 Kbps
Width                       : 720 pixels
Height                      : 304 pixels
Display aspect ratio        : 2.35:1
Frame rate                  : 23.976 fps
Color space                 : YUV
Chroma subsampling          : 4:2:0
Bit depth                   : 8 bits
Scan type                   : Progressive
Compression mode            : Lossy
Bits/(Pixel*Frame)          : 0.381
Stream size                 : 1.63 GiB (91%)
Writing library             : XviD 1.2.1 (UTC 2008-12-04)

Audio
ID                          : 1
Format                      : AC-3
Format/Info                 : Audio Coding 3
Mode extension              : CM (complete main)
Format settings, Endianness : Big
Codec ID                    : 2000
Duration                    : 1h 56mn
Bit rate m>ode               : Constant
Bit rate                    : 192 Kbps
Channel(s)                  : 2 channels
Channel positions           : Front: L R
Sampling rate               : 48.0 KHz
Compression mode            : Lossy
Stream size                 : 160 MiB (9%)
Alignment                   : Split accross interleaves
Interleave, duration        : 42 ms (1.00 video frame)
Interleave, preload duratio : 500 ms


PS/ POBRALES -------> SEEDUJ /THX/

DETALE TORRENTA:[ ]
Podziękowania,
 




Komentarze